Список форумов vv.uka.ru


vv.uka.ru
Народная фонотека Владимира Высоцкого
 
 Трекер   FAQFAQ   ПоискПоиск   ПользователиПользователи   ГруппыГруппы   РегистрацияРегистрация 
 ПрофильПрофиль   Войти и проверить личные сообщенияВойти и проверить личные сообщения   ВходВход 


Международная научно-практическая конференция «Владимир Высоцкий - XXI век»

 
Начать новую тему   Ответить на тему    Список форумов vv.uka.ru -> Разное
DL-List
Скачали: [ 27 ]
 
     
 
Предыдущая тема :: Следующая тема  
Автор Сообщение
chichivichka


Зарегистрирован: 30.05.2010
Сообщения: 40
Откуда: С.-Петербург
СообщениеДобавлено: Пт Май 30, 2014 12:20 am    Заголовок сообщения: Международная научно-практическая конференция «Владимир Высоцкий - XXI век» Ответить с цитатой


г. Новосибирск 7-9 мая 2014 года
Новосибирская государственная областная научная библиотека, ул. Советская, 6, конференц-зал
Запись В.Чейгина и Н.Цанкова

Видео сжато

Формат Flash Video

spoiler

Bit rate : 400 Kbps
Width : 320 pixels
Height : 240 pixels
Display aspect ratio : 4:3
Frame rate mode : Constant
Frame rate : 25.000 fps
Bits/(Pixel*Frame) : 0.208
Stream size : 84.0 MiB (85%)

Audio
Format : MPEG Audio
Format version : Version 2
Format profile : Layer 3
Bit rate mode : Constant
Bit rate : 64.0 Kbps
Channel(s) : 2 channels
Sampling rate : 22.05 KHz
Resolution : 16 bits
Stream size : 14.3 MiB (15%)



+ приветствие М.Цыбульского

_________________
Вернуться к началу
Посмотреть профиль Отправить личное сообщение
Евгений Давидович


Зарегистрирован: 22.09.2009
Сообщения: 89

СообщениеДобавлено: Сб Май 31, 2014 12:43 pm    Заголовок сообщения: Ответить с цитатой

chichivichka писал(а):
Видео сжато

формат Flash Video


Спасибо, Виктория!
А зачем этим форматом обжали? Только на компе можно смотреть.
У меня приставка к ТВ - медиа плеер WD, и даже он не видит Sad .
Вернуться к началу
Посмотреть профиль Отправить личное сообщение
La Hire


Зарегистрирован: 19.01.2010
Сообщения: 55

СообщениеДобавлено: Пн Июн 02, 2014 8:21 am    Заголовок сообщения: Ответить с цитатой

Советую пересжать в ави через Bigasoft FLV Converter (он может и склеить файлы заодно). А поскольку его файлы не читаются на железе, то потом еще надо перегнать через Kingdia Video Converter или Dr. DivX.
Вернуться к началу
Посмотреть профиль Отправить личное сообщение
andreso


Зарегистрирован: 22.10.2008
Сообщения: 42

СообщениеДобавлено: Пн Июн 02, 2014 8:26 pm    Заголовок сообщения: Ответить с цитатой

А можно ли выложить не в сжатом виде, пусть даже 40 Гб, а то здесь уж слишком ужато.
Вернуться к началу
Посмотреть профиль Отправить личное сообщение
chichivichka


Зарегистрирован: 30.05.2010
Сообщения: 40
Откуда: С.-Петербург
СообщениеДобавлено: Пн Июн 02, 2014 9:56 pm    Заголовок сообщения: Ответить с цитатой

andreso писал(а):
А можно ли выложить не в сжатом виде, пусть даже 40 Гб
Даже не переносила на свой жесткий диск (Все забито) Конвертировала с 2-х выносных.
Большинство запросов было даже на звук (без видио), в целях экономии трафика.
Поэтому сжималось все немилосердно.

_________________
Вернуться к началу
Посмотреть профиль Отправить личное сообщение
Показать сообщения:   
Начать новую тему   Ответить на тему    Список форумов vv.uka.ru -> Разное Часовой пояс: GMT + 4
Страница 1 из 1
 



Powered by TorrentPier (ABTrack) © Meithar, Aaru Bui, RoadTrain, Meik Sievertsen
Форум представлен на базе phpBB © phpBB Group

TopList